untitled paste

unlisted 1 file 2019-06-09 07:10:34 UTC

pastefile1

Raw
General
Unique ID                                : 186555418441129432315451477342155411514 (0x8C5944443EE3D6CE8A8A9AAB1A5B903A)
Complete name                            : Ant-Man (2015) [AVC, -2160p, DTS-7.1, DAWGS].mkv
Format                                   : Matroska
Format version                           : Version 4
File size                                : 36.7 GiB
Duration                                 : 1 h 57 min
Overall bit rate mode                    : Variable
Overall bit rate                         : 44.9 Mb/s
Movie name                               : DAWGS - www.HoundDawgs.org
Encoded date                             : UTC 2015-11-22 16:35:03
Writing application                      : mkvmerge v7.1.0 ('Good Love') 64bit built on Jul 27 2014 13:06:55
Writing library                          : libebml v1.3.0 + libmatroska v1.4.1

Video
ID                                       : 1
Format                                   : AVC
Format/Info                              : Advanced Video Codec
Format profile                           : High@L5.1
Format settings                          : CABAC / 3 Ref Frames
Format settings, CABAC                   : Yes
Format settings, Reference frames        : 3 frames
Format settings, GOP                     : M=3, N=33
Codec ID                                 : V_MPEG4/ISO/AVC
Duration                                 : 1 h 57 min
Bit rate mode                            : Variable
Bit rate                                 : 40.2 Mb/s
Maximum bit rate                         : 41.8 Mb/s
Width                                    : 3 840 pixels
Height                                   : 2 160 pixels
Display aspect ratio                     : 16:9
Frame rate mode                          : Constant
Frame rate                               : 23.976 (24000/1001) FPS
Standard                                 : PAL
Color space                              : YUV
Chroma subsampling                       : 4:2:0
Bit depth                                : 8 bits
Scan type                                : Progressive
Bits/(Pixel*Frame)                       : 0.202
Stream size                              : 32.9 GiB (90%)
Language                                 : English
Default                                  : Yes
Forced                                   : No
Color range                              : Limited
Color primaries                          : BT.709
Transfer characteristics                 : BT.709
Matrix coefficients                      : BT.709

Audio
ID                                       : 2
Format                                   : DTS XLL
Format/Info                              : Digital Theater Systems
Commercial name                          : DTS-HD Master Audio
Codec ID                                 : A_DTS
Duration                                 : 1 h 57 min
Bit rate mode                            : Variable
Bit rate                                 : 4 677 kb/s
Channel(s)                               : 6 channels
Channel(s)_Original                      : 8 channels
Channel layout                           : C L R LFE Lb Rb Lss Rss
Sampling rate                            : 48.0 kHz
Frame rate                               : 93.750 FPS (512 SPF)
Bit depth                                : 24 bits
Compression mode                         : Lossless
Stream size                              : 3.83 GiB (10%)
Title                                    : DTS-HD MA 7.1
Language                                 : English
Default                                  : Yes
Forced                                   : No

Text #1
ID                                       : 3
Format                                   : VobSub
Muxing mode                              : zlib
Codec ID                                 : S_VOBSUB
Codec ID/Info                            : Picture based subtitle format used on DVDs
Duration                                 : 1 h 56 min
Bit rate                                 : 7 044 b/s
Count of elements                        : 1253
Stream size                              : 5.88 MiB (0%)
Language                                 : Danish
Default                                  : Yes
Forced                                   : No

Text #2
ID                                       : 4
Format                                   : VobSub
Muxing mode                              : zlib
Codec ID                                 : S_VOBSUB
Codec ID/Info                            : Picture based subtitle format used on DVDs
Duration                                 : 1 h 56 min
Bit rate                                 : 5 907 b/s
Count of elements                        : 967
Stream size                              : 4.94 MiB (0%)
Language                                 : Swedish
Default                                  : No
Forced                                   : No

Text #3
ID                                       : 5
Format                                   : VobSub
Muxing mode                              : zlib
Codec ID                                 : S_VOBSUB
Codec ID/Info                            : Picture based subtitle format used on DVDs
Duration                                 : 1 h 56 min
Bit rate                                 : 7 321 b/s
Count of elements                        : 1531
Stream size                              : 6.12 MiB (0%)
Language                                 : Norwegian
Default                                  : No
Forced                                   : No

Text #4
ID                                       : 6
Format                                   : VobSub
Muxing mode                              : zlib
Codec ID                                 : S_VOBSUB
Codec ID/Info                            : Picture based subtitle format used on DVDs
Duration                                 : 1 h 56 min
Bit rate                                 : 6 960 b/s
Count of elements                        : 1499
Stream size                              : 5.82 MiB (0%)
Language                                 : Finnish
Default                                  : No
Forced                                   : No